Три богатирі і Спадкоємиця престолу (2018) WEB-DLRip від GeneralFilm | iTunes

Завантажити торрент
Категорія Мультиплікація
Розмір 745.07 MB (781260800 Bytes)
Додано 2019-02-06 09:00:10
Піри ⇧ 197 ⇩ 7
Останнє оновлення 2019-02-11 08:30:40

Інформація про фільм
Оригінальна назва: Три богатиря і Спадкоємиця престолу
Рік випуску: 2018
Жанр: Мультфільм , пригоди , сімейний
Випущено: Росія, «Млин»
Режисер: Костянтин Бронзит
У ролях: Михайло Черняк, Сергій Маковецький, Дмитро Биковський-Ромашов, Валерій Соловйов, Олег Куликович, Дмитро Висоцький, Олександр Боярський, Катерина Гороховська, Юрій Тарасов, Юрій Кузнєцов

Про фільм: Князь Київський вирішив призначити спадкоємця престолу, тільки от біда - хто це може бути? Родич, друг сім'ї або може бути, заморська принцеса? Недовго думаючи, Князь-батюшка вибирає майже принцесу, а головне родичку - племінницю Забаву. Нині вона разом зі своїм чоловіком Єлисеєм (пам'ятаєте вірного учня Добрині Микитовича?) Отримує освіту в далекому Царгороді, де править підступний Василевс. Щоб повернути спадкоємицю на рідні простори за тридев'ять земель в спішному порядку відправляються три богатирі і, звичайно ж, головний придворний кінь Юлій.

Якість: WEB-DLRip
Відео: XviD build 73, 720x400 (16: 9), 25.000 fps, 1146 Kbps (0.159 bit/ pixel)
Аудіо: 48.0 kHz, MP3 2ch, 128 kbps
Тривалість: 1:21:10
Переклад: Не потрібно
Субтитри: немає

Скріншоти
MediaInfo
General
Complete name: D: Razdachi3.Bogatyrja.I.Naslednica.2018.WEB-DLRip.GeneralFilm.avi
Format: AVI
Format/ Info: Audio Video Interleave File size: 745 MiB
Duration: 1 h 21 min
Overall bit rate: 1 283 kb/ s
Writing application: VirtualDubMod 1.5.10.3 | www.virtualdub-fr.org || (Build 2550/ release)
Writing library: VirtualDubMod build 2550/ release

Video
ID: 0
Format: MPEG-4 Visual
Format profile : Advanced Simple @ L5
Format settings: BVOP1/ Custom Matrix
Format settings, BVOP: 1
Format settings, QPel: No
Format settings, GMC: No warppoints
Format settings, Matrix: Custom
Codec ID: XVID
Codec ID/ Hint: XviD
Duration: 1 h 21 min
Bit rate: 1 146 kb/ s
Width: 720 pixels
Height: 400 pixels
Display aspect ratio: 16: 9
Frame rate: 25.000 FPS
Color space: YUV
Chroma subsampling: 4: 2: 0
Bit depth: 8 bits
Scan type: Progressive
Compression mode: Lossy
Bits/ (Pixel * Frame): 0.159
Stream size: 665 MiB (89%)
Writing library: XviD 73

Audio
ID: 1
Format: MPEG Audio
Format version: Version 1
Format profile: Layer 3
Codec ID: 55
Codec ID/ Hint: MP3
Duration: 1 h 21 min
Bit rate mode: Constant
Bit rate: 128 kb/ s
Channel (s): 2 channels
Sampling rate: 48.0 kHz
Frame rate: 41.667 FPS (1152 SPF)
Compression mode: Lossy
Stream size: 74.3 MiB (10%)
Alignment: Aligned on interleaves
Interleave, duration: 40 ms (1.00 video frame)
Interleave, preload duratio: 504 ms
Writing library: LAME3.99r
Encoding settings: -ms -V 4 -q 2 -lowpass 17 -b 128

Реліз від:

Схожі торренти

Дата Назва Розмір Піри
2018-11-16 Серія книг - Майстри магічного реалізму (2011-2018) FB2 119.83 MB (125648008 Bytes) ⇧ 26 ⇩ 0
2018-11-17 Майстри меча онлайн: Алісізація / Sword Art Online: Alicization [01-07 з 12] (2018) WEBRip 1080p | StudioBand 8.28 GB (8886117149 Bytes) ⇧ 9 ⇩ 32
2018-11-18 Майстри меча онлайн: Алісізація / Sword Art Online: Alicization [01-07 з 12] (2018) HDTVRip 720p від AniMedia | L2 3.11 GB (3343801664 Bytes) ⇧ 3 ⇩ 9
2018-11-18 Viasat History: Тридцятирічна війна: Залізний вік / Age of Iron. To Love and Die in the Thirty Years 'War [01-05 з 06] (2018) HDTVRip | P1 3.52 GB (3776632416 Bytes) ⇧ 5 ⇩ 0
2018-11-20 Майстри меча онлайн: Алісізація / Sword Art Online: Alicization [01-07 з 12] (2018) HDTVRip 720p від JAM CLUB | L2 3.11 GB (3343916527 Bytes) ⇧ 4 ⇩ 6