Грінч / The Grinch (2018) BDRip 1080p | L

Завантажити торрент
Категорія Мультиплікація
Розмір 6.41 GB (6887808455 Bytes)
Додано 2019-02-05 18:00:10
Піри ⇧ 414 ⇩ 26
Останнє оновлення 2019-02-11 08:30:56

Інформація про фільм
Назва: Грінч
Оригінальна назва: The Grinch
Рік виходу: 2018
Жанр: Мультфільм , фентезі , комедія , сімейний , повнометражний
Режисер: Ярроу Чейні, Скотт Моужер
В ролях: Бенедикт Камбербетч, Кемерон Сілі, Рашида Джонс, Фаррелл Вільямс, Трістан О`хара, Кенан Томпсон, Сем Лаваньіно, Рамон Хемілтон, Анджела Ленсбері, Скарлет Естевез, Майкл Бітті, Лорі Алан, Івен Кішіяма

Про фільм:
Будь-хто на місці Гринча позеленів і сказився. Як порядна інтроверт, він живе в темній печері на самій вершині гори подалі від усіх, але ці «всі» готують грандіозне святкування нового року. Вони шумлять, все прикрашають і дико дратують. Хто б відмовив собі в задоволенні зіпсувати свято? Грінч вирішує вкрасти Новий рік.

Країна: Китай, США, Франція, Японія
Студія: Illumination Entertainment, Perfect World Pictures Co., Universal Pictures
Тривалість: 1:25:49
Переклад: Любительський багатоголосий | [ремастеринг - Ash61] @ MUZOBOZ @ [ремастеринг - Ash61]

файл
Кодек: x.264
Якість: BDRip 1080p
Відео: MPEG-4 AVC, 9399 Kбит/ с, 1920x804, 23.976 кадр/ с
Аудіо # 1: Російський (АС3, 6ch, 640 Кбіт/ с, 48.0 KHz) Любительський (багатоголосий, закадровий) @ MUZOBOZ @
Аудіо # 2: Англійська (АС3, 6ch, 448 Кбіт/ с, 48.0 KHz)
Без реклами!
Субтитри: Російські Форсовані [від Ash61], англійські
MediaInfo
General
Unique ID: 186166204004336307293473170640874470523 (0x8C0E4E836612D1FC9FCCB3B75ECB7C7B)
Complete name: Грінч_The.Grinch.2018.BluRay.1080p.NNMClub.mkv
Format: Matroska
Format version: Version 2
File size: 6.41 GiB
Duration: 1 h 25 min
Overall bit rate: 10.7 Mb/ s
Movie name: Грінч_The.Grinch.2018.BluRay.1080p.NNMClub.mkv
Encoded date: UTC 2019-02-02 13:32:47
Writing application: mkvmerge v7.7.0 ( 'Six Voices') 64bit built on Feb 28 2015 23:39:33 Writing library: libebml v1.3.1 + libmatroska v1.4.2

Video
ID: 1
Format: AVC
Format/ Info: Advanced Video Codec Format profile: High@L4.1
Format settings, CABAC: Yes
Format settings, RefFrames: 5 frames
Codec ID: V_MPEG4/ ISO/ AVC
Duration: 1 h 25 min
Bit rate: 9 399 kb/ s
Width: 1 920 pixels
Height: 804 pixels
Display aspect ratio: 2.40: 1
Frame rate mode: Constant
Frame rate: 23.976 (24000/1001) FPS
Color space: YUV
Chroma subsampling: 4: 2: 0
Bit depth: 8 bits
Scan type: Progressive
Bits/ (Pixel * Frame): 0.254
Stream size: 5.63 GiB (88%)
Title: MTeam
Writing library: x264 core 157 r2938 2b00a84 TnP @MTeam Mod
Encoding settings: cabac=1/ ref=5/ deblock=1: -3: -3/ analyse=0x3: 0x133/ me=umh/ subme=10/ psy=1/ psy_rd=1.05: 0.00/ mixed_ref=1/ me_range=24/ chroma_me=1/ trellis=2/ 8x8dct=1/ cqm=0/ deadzone=21,11/ fast_pskip=0/ chroma_qp_offset=-2/ threads=12/ lookahead_threads=2/ sliced_threads=0/ nr=0/ decimate=0/ interlaced=0/ bluray_compat=0/ constrained_intra=0/ bframes=8/ b_pyramid=2/ b_adapt=2/ b_bias=0/ direct=3/ weightb=1/ open_gop=0/ weightp=2/ keyint=250/ keyint_min=24/ scenecut=40/ intra_refresh=0/ rc_lookahead=250/ rc=crf/ mbtree=0/ crf=16.7/ qcomp=0.60/ qpmin=0/ qpmax=69/ qpstep=4/ vbv_maxrate=62500/ vbv_bufsize=7812 5/ crf_max=0.0/ nal_hrd=none/ filler=0/ ip_ratio=1.30/ pb_ratio=1.20/ aq=3: 0.80
Language: English
Default: Yes
Forced: No
Color range: Limited
Color primaries: BT.709
Matrix coefficients: BT.709

Audio # 1
ID: 2
Format: AC-3
Format/ Info: Audio Coding 3
Format settings, Endianness: Big
Codec ID: A_AC3
Duration: 1 h 25 min
Bit rate mode: Constant
Bit rate: 640 kb/ s
Channel (s): 6 channels
Channel positions: Front: LCR, Side: LR, LFE
Sampling rate: 48.0 kHz
Frame rate: 31.250 FPS (1 536 SPF)
Bit depth: 16 bits
Compression mode: Lossy
Stream size: 393 MiB (6%)
Title: MVO - @ MUZOBOZ @ [ремастеринг - Ash61]
Language: Russian
Service kind: Complete Main
Default: Yes
Forced: No

Audio # 2
ID: 3
Format: AC-3
Format/ Info: Audio Coding 3
Format settings, E ndianness: Big
Codec ID: A_AC3
Duration: 1 h 25 min
Bit rate mode: Constant
Bit rate: 448 kb/ s
Channel (s): 6 channels
Channel positions: Front: LCR, Side: LR, LFE
Sampling rate: 48.0 kHz
Frame rate: 31.250 FPS (+1536 SPF)
Bit depth: 16 bits Compression mode: Lossy
Stream size: 275 MiB (4%)
Title: Original (BD 3D Eur)
Language: English
Service kind: Complete Main
Default: No
Forced: No

Text # 1
ID: 4
Format: UTF8
Codec ID: S_TEXT/ UTF8 Codec ID/ Info: UTF-8 Plain Text
Title: Форсовані [від Ash61]
Language: Russian
Default: Yes
Forced: No
Text # 2
ID: 5
Format: UTF8
Codec ID: S_TEXT/ UTF8
Codec ID/ Info: UTF8 Plain Text
Title: Full
Language: English
Default: No
Forced: No

Text # 3
ID: 6
Format: UTF- 8 Codec ID: S_TEXT/ UTF8
Codec ID/ Info: UTF8 Plain Text
Title: SDH (BD 3D Eur)
Language: English
Default: No Forced: No

Menu
00: 00: 00.000: en: Chapter 01
00: 05: 40.298: en: Chapter 02
00:10 : 35.927: en: Chapter 03
00: 14: 14.103: en: Chapter 04
00: 17: 45.106: en: Chapter 05
00: 22: 19.296: en: Chapter 06 00: 26: 28.337: en: Chapter 07
00: 30: 45.093: en: Chapter 08
00: 34: 46.584: en: Chapter 09
00: 38: 37.190 : en: Chapter 10
00: 44: 40.595: en: Chapter 11
00: 47: 27.678: en: Chapter 12
00: 52: 37.488: en: Chapter 13
00: 56: 33.181: en: Chapter 14
01: 01: 04.995: en: Chapter 15
01: 05: 34.639: en: Chapter 16
01: 07: 23.456: en : Chapter 17
01: 12: 14.914: en: Chapter 18
01: 14: 12.782: en: Chapter 19
01: 18: 08.309: en: Chapter 20
Скріншоти

Схожі торренти

Дата Назва Розмір Піри
2019-02-02 Грінч / The Grinch (2018) BDRip 1080p від Ash61 | 3D-Video | halfOU | L 5.45 GB (5850746278 Bytes) ⇧ 156 ⇩ 13
2019-02-05 Грінч / The Grinch (2018) BDRip 1080p | L 6.41 GB (6887808455 Bytes) ⇧ 414 ⇩ 26