Уральські пельмені - Азбука Уральських пельменів - Д [ефір від 18.01] (2019) WEBRip 720p

Завантажити торрент
Категорія Гумор
Розмір 1.18 GB (1267202380 Bytes)
Додано 2019-01-19 18:00:14
Піри ⇧ 104 ⇩ 3
Останнє оновлення 2019-02-11 08:33:10

Інформація про фільм
Назва: Уральські Пельмені - Азбука Уральських пельменів Д
Рік виходу: 2019
Жанр: ТВ-шоу , гумор , сатира , розважальний
Режисер: Анастастія Ширина, Леонід Коновалов
У ролях: Дмитро Брекоткін, Сергій Єршов, Сергій Ісаєв, Сергій Калугін, В'ячеслав М'ясников, Олександр Попов, Андрій Рожков, Дмитро Соколов (V), Максим Яріца, Юлія Міхалкова, Ілана Юр'єва, Ксенія Корнєва

Про фільм: Легендарні чемпіони КВН, всіма улюблені посланці гумору в сміховинному шоу! Комедійна програма "Уральські пельмені" - передача, створена неповторною командою з виробництва гумору, яка пройшла випробування часом і має цілу армію шанувальників. Своїми виступами "Уральські пельмені" встановили дуже високу планку комедійного шоу і не перестають дивувати глядачів чудовим, завжди свіжим, яскравим і незвичайним гумором, який не можна сплутати ні з чим. Смішні номера, іскрометні жарти і потужний заряд позитиву нікого не залишать байдужим.

Країна: Росія
Тривалість: 1:10:39

файл
Кодек: MPEG-4 AVC
Якість: WEBRip 720p
Відео: 1280x720, 2261 Кбіт/ с, 25 fps
Звук: AAC-LC, 2 ch, 128 kb/ s

MediaInfo General
Unique ID: 248438995816643429381500899202269472499 (0xBAE79C321D263120B6EDB633808066F3)
Complete name: UP.Azbuka.Uralskikh.Pelmenei.D.2019.WEBRip720p.mkv
Format: Matroska
Format version: Version 4/ Version 2
File size: 1.18 GiB
Duration: 1 h 10 min
Overall bit rate: 2 392 kb/ s
Encoded date: UTC 2019-01-19 04: 51:20
Writing application: mkvmerge v10.0.0 ( 'To Drown In You') 32bit
Writing library: libebml v1.3.4 + libmatroska v1.4.5

Video
ID: 1
Format: AVC
Format/ Info: Advanced Video Codec
Format profile: Main@L3.1
Format settings, CABAC: Yes
Format settings, ReFrames: 3 frames
Codec ID: V_MPEG4/ ISO/ AVC
Duration: 1 h 10 min
Bit rate: 2 261 kb/ s
Width: 1 280 pixels Height: 720 pixels
Display aspect ratio: 16: 9
Frame rate mode: Constant
Frame rate: 25.000 FPS
Color space: YUV
Chroma subsampli ng: 4: 2: 0
Bit depth: 8 bits
Scan type: Progressive
Bits/ (Pixel * Frame): 0.098
Stream size: 1.12 GiB (95%)
Default: Yes
Forced: No
Color range: Limited
Color primaries: BT.709
Transfer characteristics: BT.709
Matrix coefficients: BT .709

Audio
ID: 2
Format: AAC
Format/ Info: Advanced Audio Codec
Format profile: LC
Codec ID : A_AAC
Duration: 1 h 10 min
Bit rate: 128 kb/ s
Channel (s): 2 channels
Channel positions: Front: LR
Sampling rate : 44.1 kHz
Frame rate: 43.066 FPS (1024 spf)
Compression mode: Lossy
Stream size: 64.7 MiB (5%)
Language: English
Default: Yes
Forced: No

Скріншоти

Схожі торренти

Дата Назва Розмір Піри
2018-11-18 Уральські пельмені - Азбука Уральських пельменів - Г (2018) WEBRip 720p 653.40 MB (685142298 Bytes) ⇧ 32 ⇩ 3
2018-11-19 Уральські Пельмені - Ранок в сосновому бреду [ефір від 19.10] (2018) SATRip 924.01 MB (968890368 Bytes) ⇧ 76 ⇩ 0
2018-11-20 Уральські Пельмені - Ранок в сосновому бреду [ефір від 19.10] (2018) WEBRip 720p 1.06 GB (1143037051 Bytes) ⇧ 19 ⇩ 0
2018-11-21 Уральські Пельмені - Азбука Уральських пельменів - Г (2018) WEBRip від music80 1.11 GB (1191447535 Bytes) ⇧ 23 ⇩ 0
2018-11-21 Уральські Пельмені - Ранок в сосновому бреду (2018) WEBRip 1080p від music80 2.16 GB (2316962108 Bytes) ⇧ 31 ⇩ 0