Дівчина, яка застрягла в павутині / The Girl in the Spider's Web (2018) WEB-DL 1080p від селезень | iTunes

Завантажити торрент
Категорія Зарубіжні фільми
Розмір 4.35 GB (4666777654 Bytes)
Додано 2019-01-17 00:00:02
Піри ⇧ 5473 ⇩ 705
Останнє оновлення 2019-01-20 16:32:25

Інформація про фільм
Назва: Дівчина, яка застрягла в павутині
Оригінальна назва: The Girl in the Spider's Web
Рік виходу: 2018
Жанр: Триллер , драма , кримінал
Режисер: Федеріко Альварес
У ролях: Клер Фой, Сверрир Гуднасон, Бо Гадсдон, Сільвія Хукс, Лакіт Стенфілд, Карлотта фон Фалькенхайн, Стівен Мерчант, Крістофер Конверт, Сюннёве Макоді Лунд, Клас Банг, Камерон Бріттон, Вікі Кріпс, Андреа Пежіч, Фолькер Брух, Мікаел Персбрандт, Томас Вінгріх, Андреас Тиц, Паула Шрамм, Пол Сверре Валхейм Хаген

Хакер Лисбет Саландер и журналист Микаэль Блумквист оказываются втянуты в историю с участием шпионов, киберпреступников и коррумпированных чиновников. Про фільм: Хакер Лісбет Саландер і журналіст Мікаель Блумквіст виявляються втягнуті в історію за участю шпигунів, кіберзлочинців і корумпованих чиновників.

Країна: Великобританія, Німеччина, Швеція, Канада, США
Студія: Metro-Goldwyn-Mayer (MGM), New Regency Pictures
Тривалість: 1:55:24
Переклад: Дубльований | iTunes

Якість: WEB-DL 1080p
Відео: MPEG-4 AVC, 1920x796, 4494 Kbit/ s, 23.976 fps
звук:
Аудіо # 01: 48 kHz, AC3, 5.1, 384 Kbps | iTunes | RUS |
Аудіо # 02: 48 kHz, AAC, 2.0, 127 Kbps | iTunes | UKR |
Аудіо # 03: 48 kHz, AC3, 5.1, 384 Kbps | оригінал | ENG |
Субтитри: Російські (Forced, full), українські (Full), англійські

MI General
Unique ID: 194252815689363562411275104172901462642 (0x9223BB406C4E22EDFAA17A3391D0F272)
Complete name: D: Video111The.Girl.in.the.Spiders.Web.2018.WEB-DL.1080p.seleZen.mkv
Format: Matroska
Format version: Version 4
File size: 4.35 GiB
Duration: 1 h 55 min
Overall bit rate: 5 392 kb/ s
Movie name: The Girl in the Spiders Web 2018 from селезень
Encoded date: UTC 2019-01-16 21:07:11
Writing application: mkvmerge v29.0.0 ( 'Like It Or Not') 64-bit
Writing library: libebml v1.3.6 + libmatroska v1.4.9

Video
ID: 1
Format: AVC
Format/ Info: Advanced Video Codec
Format profile: High @ L4
Format settings: CABAC/ 5 Ref Frames
Format settings, CABAC: Yes
Format settings, ReFrames: 5 frames
Codec ID: V_MPEG4/ ISO/ AVC
Duration: 1 h 55 min
Bit rate: 4 494 kb/ s
Width: 1 920 pixels
Height: 796 pixels
Display aspect ratio: 2.40: 1
Frame rate mode: Constant
Frame rate: 23.976 (24000/1001) FPS
Color space: YUV
Chroma subsampling: 4: 2: 0
Bit depth: 8 bits
Scan type: Progressive
Bits/ (Pixel * Frame): 0.123
Stream size: 3.62 GiB (83%)
Language: English
Default: Yes
Forced: No
Color range: Limited
Color primaries: BT.709
Transfer characteristics: BT.709
Matrix coefficients: BT.709

Audio # 1
ID: 2
Format: AC-3
Format/ Info: Audio Coding 3
Commercial name: Dolby Digital
Codec ID: A_AC3
Duration: 1 h 55 min
Bit rate mode: Constant
Bit rate: 384 kb/ s
Channel (s): 6 channels
Channel layout: LRC LFE Ls Rs
Sampling rate: 48.0 kHz
Frame rate: 31.250 FPS (1536 SPF)
Bit depth: 16 bits
Compression mode: Lossy
Stream size: 317 MiB (7%)
Title: iTunes
Language: Russian
Service kind: Complete Main
Default: Yes
Forced: Yes

Audio # 2
ID: 3
Format: AAC LC
Format/ Info: Advanced Audio Codec Low Complexity
Codec ID: A_AAC-2
Duration: 1 h 55 min
Bit rate: 127 kb/ s
Channel (s): 2 channels
Channel layout: LR
Sampling rate: 48.0 kHz
Frame rate: 46.875 FPS (1024 SPF)
Compression mode: Lossy
Stream size: 105 MiB (2%)
Title: iTunes
Language: Ukrainian
Default: No
Forced: No

Audio # 3
ID: 4
Format: AC-3
Format/ Info: Audio Coding 3
Commercial name: Dolby Digital
Codec ID: A_AC3
Duration: 1 h 55 min
Bit rate mode: Constant
Bit rate: 384 kb/ s
Channel (s): 6 channels
Channel layout: LRC LFE Ls Rs
Sampling rate: 48.0 kHz
Frame rate: 31.250 FPS (+1536 SPF)
Bit depth: 16 bits
Compression mode: Lossy
Stream size: 317 MiB (7%)
Title: Original
Language: English
Service kind: Complete Main
Default: No
Forced: No

Text # 1
ID: 5 Format: UTF8
Codec ID: S_TEXT/ UTF8
Codec ID/ Info: UTF8 Plain Text
Duration: 1 h 51 min
Bit rate: 0 b/ s
Count of elements: 14
Stream size: 732 Bytes (0%)
Title: Forced
Language: Russian
Default: Yes
Forced: Yes

Text # 2
ID: 6
Format: UTF8
Codec ID: S_TEXT/ UTF8
Codec ID/ Info: UTF -8 Plain Text
Duration: 1 h 53 min
Bit rate: 38 b/ s
Count of elements: 731
Stream size: 32.0 KiB (0%)
Title: Full
Language: Russian
Default: No
Forced: No

Text # 3
ID: 7
Format: UTF -8
Codec ID: S_TEXT/ UTF8
Codec ID/ Info: UTF8 Plain Text
Duration: 1 h 53 min
Bit rate: 37 b/ s
Count of elements: 693
Stream size: 31.0 KiB (0%)
Langu age: Ukrainian
Default: No
Forced: No

Text # 4
ID: 8
Format: UTF-8
Codec ID : S_TEXT/ UTF8
Codec ID/ Info: UTF8 Plain Text
Duration: 1 h 46 min
Bit rate: 24 b/ s
Count of elements: 695
Stream size: 19.3 KiB (0%)
Language: English
Default: No
Forced: No

Menu
00: 00: 00.000 : en: 1
00: 10: 23.915: en: 2
00: 16: 32.867: en: 3
00: 21: 05.431: en: 4
00:27 : 34.445: en: 5
00: 34: 20.058: en: 6
00: 41: 41.040: en: 7
00: 48: 24.318: en: 8
00 : 58: 39.182: en: 9
01: 05: 56.827: en: 10
01: 10: 31.977: en: 11
01: 20: 03.923: en: 12
01: 27: 18.899: en: 13
01: 35: 05.532: en: 14
01: 38: 04.127: en: 15
01: 43: 16.564: en: 16

Реліз від:

Схожі торренти

Дата Назва Розмір Піри
2019-01-17 Дівчина, яка застрягла в павутині / The Girl in the Spider's Web (2018) WEB-DL 1080p від селезень | iTunes 4.35 GB (4666777654 Bytes) ⇧ 5473 ⇩ 705
2019-01-17 Дівчина, яка застрягла в павутині / The Girl in the Spider's Web (2018) WEB-DLRip від MegaPeer | iTunes 1.46 GB (1568494421 Bytes) ⇧ 519 ⇩ 24
2019-01-17 Дівчина, яка застрягла в павутині / The Girl in the Spider's Web (2018) WEB-DLRip від Generalfilm | КПК | iTunes 439.14 MB (460469984 Bytes) ⇧ 52 ⇩ 2
2019-01-17 Дівчина, яка застрягла в павутині / The Girl in the Spider's Web (2018) WEB-DLRip-AVC від OlLanDGroup | iTunes 747.82 MB (784150830 Bytes) ⇧ 17 ⇩ 5
2019-01-17 Дівчина, яка застрягла в павутині / The Girl in the Spider's Web (2018) WEB-DL 720p від селезень | iTunes 3.94 GB (4234436423 Bytes) ⇧ 896 ⇩ 91