Зірка народилася / A Star Is Born (2018) WEB-DL 1080p від селезень | iTunes

Завантажити торрент
Категорія Зарубіжні фільми
Розмір 5.17 GB (5550227488 Bytes)
Додано 2019-01-16 00:00:02
Піри ⇧ 4334 ⇩ 357
Останнє оновлення 2019-01-20 16:32:50

Інформація про фільм
Назва: Зірка народилася
Оригінальна назва: A Star Is Born
Рік виходу: 2018
Жанр: Мелодрама , музика
Режисер: Бредлі Купер
В ролях: Леді Гага, Бредлі Купер, Сем Елліотт, Дейв Чаппелля, Алек Болдуін, Рафі Гаврон, Ентоні Рамос, Ендрю Дайс Клей, Майкл Харні, Д.Дж. Пірс, Уїлл Беллана

Кантри-музыкант Джексон Мейн, чья карьера быстро катится под откос, однажды знакомится с никому не известной талантливой певицей Элли. Про фільм: Кантрі-музикант Джексон Мейн, чия кар'єра швидко котиться під укіс, одного разу знайомиться з нікому не відомої талановитою співачкою Еллі. Між героями спалахує пристрасний роман. Джек допомагає Еллі домогтися успіху. Але чим швидше набирає обертів музична кар'єра Еллі, тим складніше йому миритися зі своєю в'янучої славою.

Країна: США
Студія: 22&Indiana Pictures, Gerber Pictures
Тривалість: 2:15:43
Переклад: Дубльований | iTunes

Якість: WEB-DL 1080p
Відео: MPEG-4 AVC, 1920x800, 4556 Kbit/ s, 23.976 fps
звук:
Аудіо # 01: 48 kHz, AC3, 5.1, 384 Kbps | iTunes | RUS |
Аудіо # 02: 48 kHz, AAC, 2.0, 125 Kbps | iTunes | UKR |
Аудіо # 03: 48 kHz, AC3, 5.1, 384 Kbps | оригінал | ENG |
Субтитри: Російські (Forced, full), українські (Forced), англійські

MI General
Unique ID: 257950352926151924876759404168414783224 (0xC20F6E4E951C0620A3CEBBBECE0066F8)
Complete name: D: Video111A.Star.is.Born.2018.WEB-DL.1080p.seleZen.mkv
Format: Matroska
Format version: Version 4
File size: 5.17 GiB
Duration: 2 h 15 min
Overall bit rate: 5 452 kb/ s
Movie name: A Star is Born 2018 from селезень
Encoded date: UTC 2019-01-15 21:29:52
Writing application: mkvmerge v29.0.0 ( 'Like It Or Not') 64-bit
Writing library: libebml v1.3.6 + libmatroska v1.4.9

Video
ID: 1
Format: AVC
Format/ Info: Advanced Video Codec
Format profile: High @ L4
Format settings: CABAC/ 5 Ref Frames
Format settings, CABAC: Yes
Format settings, ReFrames: 5 frames
Codec ID: V_MPEG4/ ISO/ AVC
Duration: 2 h 15 min
Bit rate 4 556 kb/ s
Width: 1 920 pixels
Height: 800 pixels
Display aspect ratio: 2.40: 1
Frame rate mode: Constant
Frame rate: 23.976 (24000/1001) FPS
Color space: YUV
Chroma subsampling: 4: 2: 0
Bit depth: 8 bits
Scan type: Progressive
Bits/ (Pixel * Frame): 0.124
Stream size: 4.32 GiB (84%)
Language: English
Default: Yes
Forced: No
Color range: Limited
Color primaries: BT.709
Transfer characteristics: BT.709
Matrix coefficients: BT.709

Audio # 1
ID: 2
Format: AC-3
Format/ Info: Audio Coding 3
Commercial name: Dolby Digital
Codec ID: A_AC3
Duration: 2 h 15 min
Bit rate mode: Constant
Bit rate: 384 kb/ s
Channel (s): 6 channels
Channel layout: LRC LFE Ls Rs
Sampling rate: 48.0 kHz
Frame rate: 31.250 FPS (одна тисяча п'ятсот тридцять шість SPF)
Bit depth: 16 bits
Compression mode: Lossy
Stream size: 373 MiB (7%)
Title: iTunes
Language: Russian
Service kind: Complete Main
Default: Yes
Forced: Yes

Audio # 2
ID: 3
Format: AAC LC
Format/ Info: Advanced Audio Codec Low Complexity
Codec ID: A_AAC-2
Duration: 2 h 15 min
Bit rate: 125 kb/ s
Channel (s): 2 channels
Channel layout: LR
Sampling rate: 48.0 kHz
Frame rate: 46.875 FPS (1024 SPF)
Compression mode: Lossy
Stream size: 122 MiB (2%)
Title: iTunes
Language: Ukrainian
Default: No
Forced: No

Audio # 3
ID: 4
Format: AC-3
Format/ Info: Audio Coding 3
Commercial name: Dolby Digital
Codec ID: A_AC3
Duration: 2 h 15 min
Bit rate mode: Constant
Bit rate: 384 kb/ s
Channel (s): 6 channels
Channel layout: LRC LFE Ls Rs
Sampling rate: 48.0 kHz
Frame rate: 31.250 FPS (одна тисяча п'ятсот тридцять шість SPF)
Bit depth: 16 bits
Compression mode: Lossy
Stream size: 373 MiB (7%)
Title: Original
Language: English
Service kind: Complete Main
Default: No
Forced: No

Text # 1
ID: 5
Format: UTF-8
Codec ID: S_TEXT/ UTF8
Codec ID/ Info: UTF-8 Plain Text
Duration: 1 h 25 min
Bit rate: 0 b/ s
Count of elements: 6
Stream size: 232 Bytes (0%)
Title: Forced
Language: Russian
Default: Yes
Forced: Yes

Text # 2
ID: 6
Format: UTF-8
Codec ID: S_TEXT/ UTF8
Codec ID/ Info: UTF-8 Plain Text
Duration: 2 h 14 min
Bit rate: 95 b/ s
Count of elements: +1563
Stream size: 94.6 KiB (0%)
Title: Full
Language: Russian
Default: No
Forced: No

Text # 3
ID: 7
Format: UTF-8
Codec ID: S_TEXT/ UTF8
Codec ID/ Info: UTF-8 Plain Text
Duration: 1 h 26 min
Bit rate: 0 b/ s
Count of elements: 8
Stream size: 406 Bytes (0%)
Language: Ukrainian
Default: No
Forced: No

Text # 4
ID: 8
Format: UTF-8
Codec ID: S_TEXT/ UTF8
Codec ID/ Info: UTF-8 Plain Text
Duration: 2 h 14 min
Bit rate: 70 b/ s
Count of elements: 2151
Stream size: 69.3 KiB (0%)
Title: SDH
Language: English
Default: No
Forced: No

Menu
00: 00: 00.000: en: 1
00: 11: 08.000: en: 2
00: 20: 26.000: en: 3
00: 31: 43.000: en: 4
00: 42: 46.000: en: 5
00: 53: 11.000: en: 6
01: 04: 31.000: en: 7
01: 16: 51.000: en: 8
01: 29: 29.000: en: 9
01: 43: 45.000: en: 10
01: 56: 41.000: en: 11
02: 10: 05.000: en: 12

Реліз від:

Схожі торренти

Дата Назва Розмір Піри
2018-12-30 Моя зірка [01-04 з 04] (2018) WEB-DLRip-AVC від Files-x 2.37 GB (2540782993 Bytes) ⇧ 40 ⇩ 5
2019-01-16 Зірка народилася / A Star Is Born (2018) WEB-DL 1080p від селезень | iTunes 5.17 GB (5550227488 Bytes) ⇧ 4334 ⇩ 357
2019-01-17 Зірка народилася / A Star Is Born (2018) WEB-DLRip від Scarabey | iTunes 1.45 GB (1553713152 Bytes) ⇧ 163 ⇩ 11
2019-01-18 Зірка народилася / A Star Is Born (2018) WEB-DLRip від Scarabey | iTunes 795.85 MB (834510848 Bytes) ⇧ 35 ⇩ 6
2019-02-03 Зірка народилася / A Star Is Born (2018) HDRip | КПК | Ліцензія 516.20 MB (541274808 Bytes) ⇧ 25 ⇩ 6