Хантер Кілер / Hunter Killer (2018) WEB-DL 1080p від селезень | iTunes

Завантажити торрент
Категорія Зарубіжні фільми
Розмір 4.37 GB (4692193418 Bytes)
Додано 2019-01-15 03:00:03
Піри ⇧ 2912 ⇩ 176
Останнє оновлення 2019-01-20 16:33:27

Інформація про фільм
Назва: Хантер Кілер
Оригінальна назва: Hunter Killer
Рік виходу: 2018
Жанр: Бойовик , трилер
Режисер: Донован Марш
В ролях: Джерард Батлер, Гері Олдман, Коммон, Зейн Холц, Мікаел Нюквіст, Тобі Стівенс, Лінда Карделліні, Корі Джонсон, Адам Джеймс, Генрі Гудман, Колін Стінтон, Олександр Дьяченко, Михайло Горевий, Юрій Колокольников

Американская атакующая субмарина «Хантер Киллер» вместе с подразделением Военно-Морских сил США вступает в крайне рискованную боевую авантюру по спасению мира от катастрофы. Про фільм: Американська атакуюча субмарина «Хантер Кілер» разом з підрозділом Військово-Морських сил США вступає в украй ризиковану бойову авантюру з порятунку світу від катастрофи. Коли час закінчується і кожна хвилина на рахунку, елітної команді доведеться зробити неможливе, щоб запобігти конфлікту світового масштабу.

Країна: США
Студія: Hunter Killer Productions, G-BASE, Hishow Entertainment
Тривалість: 2:01:20
Переклад: Дубльований | iTunes

Якість: WEB-DL 1080p
Відео: MPEG-4 AVC, 1908x792, 4578 Kbit/ s, 23.976 fps
звук:
Аудіо # 01: 48 kHz, AC3, 5.1, 384 Kbps | iTunes | RUS |
Аудіо # 02: 48 kHz, AC3, 2.0, 192 Kbps | оригінал | ENG |

MI General
Unique ID: 157669340398577037479344825746083525296 (0x769E02A97A8EC958BF9FBC475AF3B2B0)
Complete name: D: Video111Hunter Killer.2018.WEB-DL.1080.seleZen.mkv
Format: Matroska
Format version: Version 4
File size: 4.37 GiB
Duration: 2 h 1 min
Overall bit rate: 5 156 kb/ s
Movie name: Hunter Killer 2018 from селезень
Encoded date: UTC 2019-01-14 21:26:36
Writing application: mkvmerge v29.0.0 ( 'Like It Or Not') 64-bit
Writing library: libebml v1.3.6 + libmatroska v1.4.9

Video
ID: 1
Format: AVC
Format/ Info: Advanced Video Codec
Format profile: High @ L4
Format settings: CABAC/ 5 Ref Frames
Format settings, CABAC: Yes
Format settings, ReFrames: 5 frames
Codec ID: V_MPEG4/ ISO/ AVC
Duration: 2 h 1 min
Bit rate: 4 578 kb/ s
Width: 1 908 pixels
Height: 792 pixels
Display aspect ratio: 2.40: 1
Frame rate mode: Constant
Frame rate: 23.976 (24000/1001) FPS
Color space: YUV
Chroma subsampling: 4: 2: 0
Bit depth: 8 bits
Scan type: Progressive
Bits/ (Pixel * Frame): 0.126
Stream size: 3.88 GiB (89%)
Language: English
Default: Yes
Forced: No
Color range: Limited
Color primaries: BT.709
Transfer characteristics: BT.709
Matrix coefficients: BT.709

Audio # 1
ID: 2
Format: AC-3
Format/ Info: Audio Coding 3
Commercial name: Dolby Digital
Codec ID: A_AC3
Duration: 2 h 1 min
Bit rate mode: Constant
Bit rate: 384 kb/ s
Channel (s): 6 channels
Channel layout: LRC LFE Ls Rs
Sampling rate: 48.0 kHz
Frame rate: 31.250 FPS (одна тисяча п'ятсот тридцять шість SPF)
Bit depth: 16 bits
Compression mode: Lossy
Stream size: 333 MiB (7%)
Title: iTunes
Language: Russian
Service kind: Complete Main
Default: Ye s
Forced: Yes

Audio # 2
ID: 3
Format: AC-3
Format/ Info: Audio Coding 3
Commercial name: Dolby Digital
Codec ID: A_AC3
Duration: 2 h 1 min
Bit rate mode: Constant
Bit rate: 192 kb/ s
Channel (s ): 2 channels
Channel layout: LR
Sampling rate: 48.0 kHz
Frame rate: 31.250 FPS (1 536 SPF)
Bit depth: 16 bits
Compression mode: Lossy
Stream size: 167 MiB (4%)
Title: Original
Language: English
Service kind: Complete Main
Default: No
Forced: No

Menu
00: 00: 00.000: en: 1
00: 06: 00.000: en: 2
00: 16: 27.000: en: 3 00: 26: 58.000: en: 4
00: 36: 10.000: en: 5
00: 46: 10.000: en: 6
00: 55: 28.000: en: 7
01: 05: 52.000: en: 8
01: 16: 55.000: en: 9
01: 27: 06.000: en: 10
01: 37: 06.000: en: 11
01: 47: 03.000: en: 12
01: 51: 58.000: en: 13

Реліз від:

Схожі торренти

Дата Назва Розмір Піри
2019-01-11 Хантер Кілер / Hunter Killer (2018) WEBRip 1080p від Dalemake | HDrezka Studio 5.21 GB (5590350887 Bytes) ⇧ 134 ⇩ 2
2019-01-11 Хантер Кілер / Hunter Killer (2018) WEBRip від Dalemake | HDrezka Studio 1.46 GB (1562974208 Bytes) ⇧ 392 ⇩ 4
2019-01-11 Хантер Кілер / Hunter Killer (2018) WEBRip-AVC | HDrezka Studio 1.65 GB (1767812193 Bytes) ⇧ 9 ⇩ 1
2019-01-11 Хантер Кілер / Hunter Killer (2018) WEBRip-AVC від OlLanDGroup | HDRezka Studio 1.46 GB (1566973971 Bytes) ⇧ 31 ⇩ 0
2019-01-12 Хантер Кілер / Hunter Killer (2018) HDRip 720p | HDRezka Studio 3.24 GB (3478618442 Bytes) ⇧ 79 ⇩ 2