Годзилла: пожирає планету / Godzilla: hoshi wo ku mono / Godzilla: The Planet Eater (2018) WEB-DL 1080p | Sub

Завантажити торрент
Категорія Аніме
Розмір 5.09 GB (5461523741 Bytes)
Додано 2019-01-09 20:00:17
Піри ⇧ 19 ⇩ 1
Останнє оновлення 2019-02-11 08:37:51

Інформація про фільм
Назва: Годзилла: пожирає планету
Оригінальна назва: Godzilla: hoshi wo ku mono/ Godzilla: The Planet Eater
Рік виходу: 2018
Жанр: Aніме , мультфільм , бойовик , фантастика
Режисер: Хіроюкі Сесіта, Сідзуно Кобунся
В ролях: Мамору Міяно, Сакураи Такахіро, Кана Ханадзава, Томокадзу Сугита, Юкі Кадзи, Реіна Уеда, Арі Одзава, Даісуке Воно, Кен'ю Хоріуті, Кадзуо Накаї, Кадзухиро Ямадзі, САОР Хаямі, Кеньїті Судзумура, Канехіра Ямамото

Про фільм:
Спільними зусиллями дві цивілізації людей все-таки здолали найбільшого Годзіллу. Але планета не здається і насилає на людство більше ефективний засіб - монстра Кінга Гідору.

Країна: Японія
Студія: Polygon Pictures, TOHO animation
Тривалість: 1:30:30
Переклад: Субтитри

файл
Кодек: AVC
Якість: WEB-DL 1080p | Godzilla.The.Planet.Eater.2018.1080p.NF.WEBRip.DDP5.1.x264-NTG
Відео: MPEG-4 AVC, 6810 Kбит/ с, 1920x1080, 24.000 кадр/ с
Звук:Реліз без Реклами!
Аудіо # 1: Японський (EAC3, 6ch, 640 Кбіт/ с, 48.0 KHz)
Аудіо # 2: Англійська (EAC3, 6ch, 640 Кбіт/ с, 48.0 KHz)
Субтитри: Російські, англійські, іспанські, французькі, німецькі, португальські і ін.(Див.Інфо-файл)
MediaInfo Джерело: Godzilla.The.Planet.Eater.2018.1080p.NF.WEBRip.DDP5.1.x264-NTG
General
Unique ID: 179686160081612637482267580607578435558 (0x872E4BAE5CD9BB118415617F81E6EFE6)
Complete name: Godzilla.The .Planet.Eater.2018.WEB-DL.1080p.Sub.mkv
Format: Matroska
Format version: Version 4/ Version 2
File size: 5.09 GiB
Duration: 1 h 30 min
Overall bit rate mode: Variable
Overall bit rate 8 046 kb/ s
Encoded date: UTC 2019-01-09 9:36:48
Writing application: mkvmerge v7.1.0 ( 'Good Love') 64bit built on Jul 27 2014 13:06:55
Writing library: libebml v1.3.0 + libmatroska v1.4.1

Video
ID: 1
Format: AVC
Format/ Info: Advanced Video Codec
Format profile: Main @ L4
Format settings, CABAC: Yes
Format settings, RefFrames: 3 frames
Codec ID: V_MPEG4/ ISO/ AVC
Duration: 1 h 30 min
Bit rate mode: Variable
Bit rate 6 810 kb/ s
Maximum bi t rate: 10.2 Mb/ s
Width: 1 920 pixels
Height 1 080 pixels
Display aspect ratio: 16: 9
Frame rate mode: Constant
Frame rate: 24.000 FPS
Color space: YUV
Chroma subsampling: 4: 2: 0
Bit depth: 8 bits
Scan type: Progressive
Bits/ (Pixel * Frame): 0.137
Stream size: 4.27 GiB (84%)
Writing library: x264 core 148 r2715 7e75228
Encoding settings: cabac=1/ ref=3/ deblock=1: 0: 0/ analyse=0x1: 0x111/ me=umh/ subme=10/ psy=1/ psy_rd=1.00: 0.00/ mixed_ref=1/ me_range=24/ chroma_me=1/ trellis=2/ 8x8dct=0/ cqm=0/ deadzone=21,11/ fast_pskip=1/ chroma_qp_offset=-2/ threads=8/ lookahead_threads=1/ sliced_threads=0/ nr=0/ decimate=1/ interlaced=0/ bluray_compat=0/ stitchable=1/ constrained_intra=0/ bframes=2/ b_pyramid=0/ b_adapt=2/ b_bias=0/ direct=3/ weightb=1/ open_gop=0/ weightp=2/ keyint=48/ keyint_min=25/ scenecut=0/ intra_refresh=0/ rc_lookahead=48/ rc=2pass/ mbtree=1/ bitr ate=6810/ ratetol=1.0/ qcomp=0.50/ qpmin=6/ qpmax=51/ qpstep=4/ cplxblur=20.0/ qblur=0.5/ vbv_maxrate=10215/ vbv_bufsize=13620/ nal_hrd=vbr/ filler=0/ ip_ratio=1.40/ aq=1: 1.00
Default: Yes
Forced: No

Audio # 1
ID: 2
Format: E-AC-3
Format/ Info: Enhanced Audio Coding 3
Format settings, Endianness: Big
Codec ID: A_EAC3
Duration: 1 h 30 min
Bit rate mode: Constant Bit rate: 640 kb/ s
Channel (s): 6 channels
Channel positions: Front: LCR, Side: LR, LFE
Sampling rate: 48.0 kHz
Frame rate: 187.500 FPS (256 SPF)
Compression mode: Lossy
Stream size: 414 MiB (8%)
Title: Japanese
Language: Japanese
Service kind : Complete Main
Default: Yes
Forced: No

Audio # 2
ID: 3
Format: E-AC-3
Format/ Info: Enhanced Audio Coding 3
Format settings, Endianness: Big
Codec ID: A_EAC3
Duration: 1 h 30 min
Bit rate mode: Constant
Bit rate: 640 kb/ s
Channel (s): 6 channels
Channel positions: Front: LCR, Side: LR, LFE
Sampling rate: 48.0 kHz
Frame rate: 187.500 FPS (256 SPF)
Compression mode: Lossy
Stream size: 414 MiB (8%)
Language: English
Service kind: Complete Main
Default: No
Forced: No

Text # 1
ID: 4
Format: UTF-8
Codec ID: S_TEXT/ UTF8
Codec ID/ Info: UTF8 Plain Text
Duration: 1 h 29 min
Bit rate: 90 b/ s
Count of elements: 1005
Stream size: 59.0 KiB (0%)
Language: Russian
Default: Yes
Forced: No

Text # 2 ID: 5
Format: UTF8
Codec ID: S_TEXT/ UTF8
Codec ID/ Info: UTF8 Plain Text
Duration: 1 h 29 min Bit rate: 59 b/ s
Count of elements: 990
Stream size: 39.0 KiB (0%)
Language: English
Default: No
Forced: No

T ext # 3
ID: 6
Format: UTF8
Codec ID: S_TEXT/ UTF8
Codec ID/ Info: UTF8 Plain Text
Duration: 1 h 29 min
Bit rate: 60 b/ s
Count of elements: 985
Stream size: 39.7 KiB (0%)
Language: German
Default: No
Forced: No

Text # 4
ID: 7
Format: UTF8
Codec ID: S_TEXT/ UTF8
Codec ID/ Info: UTF-8 Plain Text
Duration: 1 h 29 min
Bit rate: 61 b/ s
Count of elements: 996
Stream size: 40.2 KiB (0% )
Language: French
Default: No
Forced: No

Text # 5
ID: 8
Format: UTF-8 Codec ID: S_TEXT/ UTF8
Codec ID/ Info: UTF8 Plain Text
Duration: 1 h 29 min
Bit rate: 61 b/ s
Count of elements: 989
Stream size: 40.1 KiB (0%)
Language: Italian
Default: No
Forced: No

Text # 6
ID: 9
Format: UTF8
Codec ID: S_TEXT/ UTF8
Codec ID/ Info: UTF8 P lain Text
Duration: 1 h 29 min
Bit rate: 56 b/ s
Count of elements: 985
Stream size: 37.1 KiB (0%)
Language : Spanish
Default: No
Forced: No

Text # 7
ID: 10
Format: UTF-8
Codec ID: S_TEXT/ UTF8
Codec ID/ Info: UTF8 Plain Text
Duration: 1 h 29 min
Bit rate: 60 b/ s
Count of elements: 998
Stream size: 39.7 KiB (0%)
Title: European
Language: Spanish
Default: No
Forced: No

Text # 8 ID: 11
Format: UTF8
Codec ID: S_TEXT/ UTF8
Codec ID/ Info: UTF8 Plain Text
Duration: 1 h 29 min Bit rate: 54 b/ s
Count of elements: 943
Stream size: 35.4 KiB (0%)
Language: Portuguese
Default: No
Forced: No

Text # 9
ID: 12
Format: UTF8
Codec ID: S_TEXT/ UTF8
Codec ID/ Info: UTF -8 Plain Text
Duration: 1 h 29 min
Bit rate: 58 b/ s
Count of elements: 961
Stream size: 38.0 KiB (0%)
Title: Brazilian
Language: Portuguese
Default: No
Forced: No

Text # 10
ID: 13
Format: UTF8
Codec ID: S_TEXT/ UTF8
Codec ID/ Info: UTF8 Plain Text
Duration: 1 h 29 min
Bit rate: 101 b/ s
Count of elements: 1001,
Stream size: 66.5 KiB (0%)
Language: Greek
Default: No
Forced: No

Text # 11
ID: 14
Format: UTF8
Codec ID: S_TEXT/ UTF8
Codec ID/ Info: UTF-8 Plain Text
Duration: 1 h 29 min
Bit rate: 82 b/ s
Count of elements: 995
Stream size: 54.0 KiB (0%)
Language: Arabic
Default: No
Forced: No

Text # 12
ID: 15
Format: UTF8
Codec ID: S_TEXT/ UTF8
Codec ID/ Info: UTF8 Plain Text
Duration: 1 h 29 min
Bit rate: 52 b/ s
Count of elements: 792
Stream size: 34.0 KiB (0%)
L anguage: Danish
Default: No
Forced: No

Text # 13
ID: 16
Format: UTF-8
Codec ID : S_TEXT/ UTF8
Codec ID/ Info: UTF8 Plain Text
Duration: 1 h 29 min
Bit rate: 52 b/ s
Count of elements: 993
Stream size: 34.3 KiB (0%)
Language: Finnish
Default: No
Forced: No

Text # 14
ID: 17
Format: UTF8
Codec ID: S_TEXT/ UTF8
Codec ID/ Info: UTF8 Plain Text
Duration: 1 h 29 min
Bit rate: 81 b/ s
Count of elements: 995
Stream size: 53.4 KiB (0%)
Language: Hebrew
Default: No
Forced: No

Text # 15
ID: 18
Format: UTF8
Codec ID: S_TEXT/ UTF8
Codec ID/ Info: UTF8 Plain Text
Duration: 1 h 29 min
Bit rate: 81 b/ s
Count of elements: 1330
Stream size: 53.3 KiB (0%)
Title: SDH
Language: Japanese
Default: No
Forced: No

Text # 16
ID: 19
Format: UTF8
Codec ID: S_TEXT/ UTF8
Codec ID/ Info: UTF8 Plain Text
Duration: 1 h 29 min
Bit rate: 56 b/ s
Count of elements: 997
Stream size: 37.2 KiB (0%)
Language: Korean
Default: No Forced: No

Text # 17
ID: 20
Format: UTF8
Codec ID: S_TEXT/ UTF8
Codec ID/ Info: UTF-8 Plain Text
Duration: 1 h 29 min
Bit rate: 53 b/ s
Count of elements: 921
Stream size: 35.0 KiB (0%)
Language: Norwegian Bokmal
Default: No
Forced: No

Text # 18
ID: 21
Format: UTF-8 Codec ID: S_TEXT/ UTF8
Codec ID/ Info: UTF8 Plain Text
Duration: 1 h 29 min
Bit rate: 51 b/ s
Count of elements: 863
Stream size: 33.5 KiB (0%)
Language: Dutch
Default: No
Forced: No

Text # 19
ID: 22
Format: UTF8
Codec ID: S_TEXT/ UTF8
Codec ID/ In fo: UTF-8 Plain Text
Duration: 1 h 29 min
Bit rate: 58 b/ s
Count of elements: 970
Stream size: 38.0 KiB (0%)
Language: Romanian
Default: No
Forced: No

Text # 20
ID: 23
Format: UTF-8
Codec ID: S_TEXT/ UTF8
Codec ID/ Info: UTF8 Plain Text
Duration: 1 h 29 min
Bit rate: 58 b/ s
Count of elements : 807
Stream size: 37.9 KiB (0%)
Language: Swedish
Default: No
Forced: No

Text # 21
ID: 24
Format: UTF8
Codec ID: S_TEXT/ UTF8
Codec ID/ Info: UTF8 Plain Text
Duration: 1 h 29 min
Bit rate: 52 b/ s
Count of elements: 1012
Stream size: 34.6 KiB (0%)
Language: Polish
Default: No
Forced: No

Text # 22
ID: 25
Format: UTF8
Codec ID: S_TEXT/ UTF8
Codec ID/ Info: UTF8 Plain Text
Duration: 1 h 29 min
Bit rate: 141 b/ s
Count of elements: 996
Stream size: 92.6 KiB (0%)
Language: Thai
Default: No
Forced: No

Text # 23
ID: 26
Format: UTF8
Codec ID: S_TEXT/ UTF8
Codec ID/ Info: UTF8 Plain Text
Duration: 1 h 29 min
Bit rate: 57 b/ s
Count of elements: 946
Stream size: 37.7 KiB (0%)
Language: Turkish
Default: No
Forced : No

Text # 24
ID: 27
Format: UTF8
Codec ID: S_TEXT/ UTF8
Codec ID/ Info: UTF- 8 Plain Text
Duration: 1 h 29 min
Bit rate: 46 b/ s
Count of elements: 996
Stream size: 30.4 KiB (0%)
Title: Simplified
Language: Chinese
Default: No
Forced: No

Text # 25
ID: 28
Format: UTF- 8
Codec ID: S_TEXT/ UTF8
Codec ID/ Info: UTF8 Plain Text
Duration: 1 h 29 min
Bit rate: 51 b/ s
Count of elements: 996
Stream size: 33.8 KiB (0%)
Title: Tradit ional
Language: Chinese
Default: No
Forced: No
Скріншоти

Схожі торренти

Дата Назва Розмір Піри
2018-12-08 Годзилла: Відродження / Shin Gojira (2016) BDRip | L 1.46 GB (1563256832 Bytes) ⇧ 7 ⇩ 0
2019-01-09 Годзилла: пожирає планету / Godzilla: hoshi wo ku mono / Godzilla: The Planet Eater (2018) WEB-DL 1080p | Sub 5.09 GB (5461523741 Bytes) ⇧ 19 ⇩ 1