Прикрась прощальне ранок квітами обіцянки / Sayonara no Asa ni Yakusoku no Hana o Kazarou (2018) BDRip-HEVC 1080p від HEVC CLUB | iTunes

Завантажити торрент
Категорія Аніме
Розмір 3.14 GB (3372477444 Bytes)
Додано 2018-11-19 18:00:12
Піри ⇧ 43 ⇩ 4
Останнє оновлення 2018-12-12 19:10:52


Назва: Прикрась прощальне ранок квітами обіцянки
Оригінальна назва: Sayonara no Asa ni Yakusoku no Hana o Kazarou


Рік випуску: 2018
Країна: Японія
Жанр: аніме , мультфільм , драма , мелодрама , пригоди , фентезі
Тривалість: 1:54:01
Переклад: Дубльований [iTunes] Reanimedia
Субтитри: Російські (Full)


Режисер: Окада Марі


Опис: Красуня макіяж - з роду безсмертних. Протягом століть багато армії намагалися захопити її народ, щоб заволодіти секретом вічного життя. І ось тепер, коли місто зруйноване, дівчина ховається в лісі. Тут вона зустрічає втратив батьків маленького хлопчика Еріан і починає про нього піклуватися.


(58:40 - 59:58) на даний проміжок часу відсутня дубляж
(1:02:28 - 1:03:18) на даний проміжок часу відсутня дубляж
Причина Цензура


Якість: BDRip-HEVC 1080p
Формат: MKV
Відео кодек: [email protected]
Аудіо кодек: AC3
Відео: 1920x1080, 23.976 fps, HEVC, ~ 2891 kbps, 10bit
Аудіо: Rus, 48 kHz/ 16-bit, AC3 5.1, ~ 384 kbps
дубляж
Аудіо: Eng, 48 kHz/ 16-bit, AC3 5.1, ~ 640 kbps
оригінал
Навігація по головам: Присутній

Автор ріпа: Alex_A




Увага! **- H.265/ HEVC (High Efficiency Video Coding) - це новий стандарт кодування відео.

  • Стандарт H.265/ HEVC є логічним продовженням стандарту H.264/ AVC (Advanced Video Coding), і характеризується більш ефективними алгоритмами стиснення, а також підтримкою високого дозволу аж до 8K UHD (8192x4320). Перша версія стандарту H.265 була опублікована на початку 2013 року.
  • Ріпи в фоматі HEVC підтримується не всіма апаратними програвачами.
  • Для коректного відтворення може знадобитися оновлення ПЗ.
  • Власникам несумісного заліза прохання не турбувати, є альтернативні релізи.** Медіаінфо General
    Unique ID: 109485455323709369234184521653440605400 (0x525E21B652B90F99F8D071F599B9ECD8)
    Complete name: D: HEVCSayonara no Asa ni Yakusoku no Hana o KazarouSayonara.no.Asa.ni.Yakusoku.no.Hana.o.Kazarou.2018.1080p_HEVCCLUB.mkv
    Format: Matroska
    Format version: Version 4/ Version 2
    File size: 3.14 GiB
    Duration: 1 h 54 min
    Overall bit rate 3 916 kb/ s
    Movie name: Sayonara no Asa ni Yakusoku no Hana o Kazarou (2018) - HEVC.CLUB
    Encoded date: UTC 2018-11-18 21:04:30
    Writing application: mkvmerge v28.2.0 ( 'The Awakening') 64-bit
    Writing library: libebml v1.3.6 + libmatroska v1.4.9
    Cover: Yes
    Attachments: cover.jpg

    Video
    ID: 1
    Format: HEVC
    Format/ Info: High Efficiency Video Coding
    Format profile: Main 10 @ L4.1 @ High
    Codec ID: V_MPEGH/ ISO/ HEVC
    Duration: 1 h 54 min
    Bit rate 2 891 kb/ s
    Width: 1 920 pixels
    Height 1 080 pixels
    Display aspect ratio: 16: 9
    Frame rate mode: Constant
    Frame rate: 23.976 (24000/1001) FPS
    Color space: YUV
    Chroma subsampling: 4: 2: 0
    Bit depth: 10 bits
    Bits/ (Pixel * Frame): 0.058
    Stream size: 2.32 GiB (74%)
    Title: HEVC.CLUB
    Writing library: x265 2.9 + 5-77b4ab015825: [Windows] [GCC 8.2.0] [64 bit] 10bit
    Encoding settings: cpuid=1111039/ frame-threads=3/ numa-pools=8/ wpp/ pmode/ no-pme/ no-psnr/ ssim/ log-level=2/ input-csp=1/ input-res=1920x1080/ interlace=0/ total-frames=0/ level-idc=41/ high-tier=1/ uhd-bd=0/ ref=5/ no-allow-non-conformance/ repeat-headers/ annexb/ no-aud/ no-hrd/ info/ hash=0/ no-temporal-layers/ open-gop/ min-keyint=23/ keyint=250/ gop-lookahead=0/ bframes=10/ b-adapt=2/ b-pyramid/ bframe-bias=0/ rc-lookahead=60/ lookahead-slices=1/ scenecut=40/ radl=0/ no-intra-refresh/ ctu=64/ min-cu-size=8/ no-rect/ no -amp/ max-tu-size=32/ tu-inter-depth=3/ tu-intra-depth=3/ limit-tu=0/ rdoq-level=1/ dynamic-rd=2.00/ ssim-rd/ signhide/ no-tskip/ nr-intra=0/ nr-inter=0/ no-constrained-intra/ no-strong-intra-smoothing/ max-merge=2/ limit-refs=0/ no-limit-modes/ me=2/ subme=7/ merange=57/ temporal-mvp/ weightp/ weightb/ no-analyze-src-pics/ deblock=-3: -3/ no-sao/ no-sao-non-deblock/ rd=4/ no-early-skip/ no-rsk ip/ no-fast-intra/ no-tskip-fast/ no-cu-lossless/ no-b-intra/ no-splitrd-skip/ rdpenalty=0/ psy-rd=1.75/ psy-rdoq=2.50/ no- rd-refine/ no-lossless/ cbqpoffs=0/ crqpoffs=0/ rc=crf/ crf=22.0/ qcomp=0.80/ qpstep=6/ stats-write=0/ stats-read=0/ vbv-maxrate=50000/ vbv-bufsize=50000/ vbv-init=0.9/ crf-max=0.0/ crf-min=0.0/ ipratio=1.50/ pbratio=1.00/ aq-mode=1/ aq-strength=0.20/ no-cutree/ zone- count=0/ no-strict-cbr/ qg-size=32/ no-rc-grain/ qpmax=69/ qpmin=0/ no-const-vbv/ sar=1/ overscan=0/ videoformat=5/ range=0/ colorprim=2/ transfer=2/ colormatrix=2/ chromaloc=0/ display-window=0/ max-cll=0,0/ min-luma=0/ max-luma=1 023/ log2-max-poc- lsb=8/ vui-timing-info/ vui-hrd-info/ slices=1/ opt-qp-pps/ opt-ref-list-length-pps/ no-multi-pass-opt-rps/ scenecut-bias=0.05/ no-opt-cu-delta-qp/ aq-motion/ no-hdr/ no-hdr-opt/ no-dhdr10-opt/ no-idr-recovery-sei/ analysis-reuse-level=5/ scale- factor=0/ refine-intra=0/ refine-inter=0/ refine- mv=0/ no-limit-sao/ ctu-info=0/ no-lowpass-dct/ refine-mv-type=0/ copy-pic=1/ max-ausize-factor=1.0/ no-dynamic-refine/ no-single-sei
    Default: Yes
    Forced: No

    Audio # 1
    ID: 2
    Format: AC-3
    Format/ Info: Audio Coding 3
    Codec ID: A_AC3
    Duration: 1 h 54 min
    Bit rate mode: Constant
    Bit rate: 384 kb/ s
    Channel (s): 6 channels
    Channel positions: Front: LCR, Side: LR, LFE
    Sampling rate: 48.0 kHz
    Frame rate: 31.250 FPS (одна тисяча п'ятсот тридцять шість SPF)
    Bit depth: 16 bits
    Compression mode: Lossy
    Stream size: 315 MiB (10%)
    Title: Dub [Reanimedia]
    Language: Russian
    Service kind: Complete Main
    Default: Yes
    Forced: No

    Audio # 2
    ID: 3
    Format: AC-3
    Format/ Info: Audio Coding 3
    Codec ID: A_AC3
    Duration: 1 h 54 min
    Bit rate mode: Constant
    Bit rate: 640 kb/ s
    Channel (s): 6 channels
    Channel positions: Front: LCR, Side: LR, LFE
    Sampling rate: 48.0 kHz
    Frame rate: 31.250 FPS (одна тисяча п'ятсот тридцять шість SPF)
    Bit depth: 16 bits
    Compression mode: Lossy
    Stream size: 526 MiB (16%)
    Title: Original
    Language: Japanese
    Service kind: Complete Main
    Default: No
    Forced: No

    Text
    ID: 4
    Format: UTF-8
    Codec ID: S_TEXT/ UTF8
    Codec ID/ Info: UTF-8 Plain Text
    Duration: 1 h 52 min
    Bit rate: 67 b/ s
    Count of elements: 1 367
    Stream size: 55.5 KiB (0%)
    Language: Russian
    Default: No
    Forced: No

    Menu
    00: 00: 00.000:: 00: 00: 00.000
    00: 05: 48.473:: 00: 05: 48.473
    00: 12: 58.861:: 00: 12: 58.861
    00: 16: 44.170:: 00: 16: 44.170
    00: 23: 16.770:: 00: 23: 16.770
    00: 32: 22.941:: 00: 32: 22.941
    00: 42: 35.678:: 00: 42: 35.678
    00: 48: 53.848:: 00: 48: 53.848
    00: 57: 57.432:: 00: 57: 57.432
    01: 10: 14.419:: 01: 10: 14.419
    01: 14: 20.956:: 01: 14: 20.956
    01: 23: 31.840:: 01: 23: 31.840
    01: 28: 38.396:: 01: 28: 38.396
    01: 34: 28.037:: 01: 34: 28.037
    01: 39: 32.300:: 01: 39: 32.300
    01: 41: 58.195:: 01: 41: 58.195
    01: 49: 19.386:: 01: 49: 19.386
    01: 54: 35.869:: 01: 54: 35.869

    Скріншоти

Схожі торренти

Дата Назва Розмір Піри
2018-11-19 Прикрась прощальне ранок квітами обіцянки / Sayonara no Asa ni Yakusoku no Hana o Kazarou (2018) BDRip-HEVC 1080p від HEVC CLUB | iTunes 3.14 GB (3372477444 Bytes) ⇧ 43 ⇩ 4