Алькатрас / Alcatraz (2018) WEB-DLRip-AVC від New-Team | L2 | HiWay Grope

Завантажити торрент
Категорія Зарубіжні фільми
Розмір 1.49 GB (1600735471 Bytes)
Додано 2018-11-17 18:00:02
Піри ⇧ 562 ⇩ 15
Останнє оновлення 2018-12-16 05:12:35

Алькатрас
Alcatraz

Країна: Великобританія, США
Жанр: бойовик , кримінал

Рік випуску: 2018
Тривалість: 1:27:08

Переклад: Любительський (двоголосий, закадровий) [HiWay Grope]
Субтитри: немає
Оригінальна аудіодоріжка: англійська

Режисер: Ендрю Джонс/ Andrew Jones

В ролях: Гарет Лоуренс, Лі Бейн, Дерек Нельсон, Гаррієт Рис, Марк Гомер, Тревіс Бут-Міллард, Патрік О'Доннелл, Ерік Хейден, Ніколас Енскомб, Райан Майклс

опис:
Молодий хлопець Клеренс потрапляє в відому своєю строгістю в'язницю-фортеця Алькатрас. Там він стає учасником однієї відокремленої групи ув'язнених, на чолі якої стоїть жорстокий вбивця і бандит. Всі разом вони вирішують спробувати удачу і втекти з цього проклятого острова.

реліз:

Автор ріпа: stalkerok
Без реклами!

семпл

[Alcatraz.2018.1080p.WEB-DL.H264.AC3-EVO] Якість відео: WEB-DLRip-AVC [Alcatraz.2018.1080p.WEB-DL.H264.AC3-EVO]
Формат відео: MKV
Відео кодек: AVC
Аудіо кодек: AC3
Відео: AVC, +1615 Кбіт/ сек, 1104x460 (2.40: 1), 23,976 кадр/ сек
Аудіо №1: AC3, 448 Кбіт/ сек, 48 кГц, 5.1 - російська
Аудіо №2: AC3, 384 Кбіт/ сек, 48 кГц, 5.1 - англійська
Навігація по главах: є

x264/ MediaInfo

--- [Information] [17.11.2018 19:25:24] x264 [info]: frame I: 860 Avg QP: 15.27 size: 52394
--- [Information] [17.11.2018 19:25:24] x264 [info]: frame P: 29096 Avg QP: 16.81 size: 18803
--- [Information] [17.11.2018 19:25:24] x264 [info]: frame B: 95360 Avg QP: 19.35 size: 4862

General
Unique ID: 337023285332266089296990266133809084680 (0xFD8C52DF2A11B0E2840E78F6AE0A3908)
Complete name: O: TempAlcatrazAlcatraz.2018.WEB-DLRip.x264.Rus.Eng.stalkerok.New-Team.mkv
Format: Matroska
Format version: Version 4/ Version 2
File size: 1.49 GiB
Duration: 1 h 27 min
Overall bit rate 2 449 kb/ s
Movie name: Alcatraz (2018) | Rip by stalkerok
Encoded date: UTC 2018-11-17 16:38:25
Writing application: mkvmerge v28.2.0 ( 'The Awakening') 64-bit
Writing library: libebml v1.3.6 + libmatroska v1.4.9

Video
ID: 1
Format: AVC
Format/ Info: Advanced Video Codec
Format profile: High@L4.1
Format settings, CABAC: Yes
Format settings, ReFrames: 12 frames
Codec ID: V_MPEG4/ ISO/ AVC
Duration: 1 h 27 min
Bit rate: 1 616 kb/ s
Width: 1 104 pixels
Height: 460 pixels
Display aspect ratio: 2.40: 1
Frame rate mode: Constant
Frame rate: 23.976 FPS
Color space: YUV
Chroma subsampling: 4: 2: 0
Bit depth: 8 bits
Scan type: Progressive
Bits/ (Pixel * Frame): 0.133
Stream size 1 007 MiB (66%)
Title: Alcatraz (2018) | Rip by stalkerok
Writing library: x264 core 157 r2932 303c484
Encoding settings: cabac=1/ ref=12/ deblock=1: -3: -2/ analyse=0x3: 0x133/ me=umh/ subme=10/ psy=1/ psy_rd=1.00: 0.00/ mixed_ref=1/ me_range=32/ chroma_me=1/ trellis=2/ 8x8dct=1/ cqm=0/ deadzone=21,11/ fast_pskip=0/ chroma_qp_offset=-2/ threads=12/ lookahead_threads=3/ sliced_threads=0/ nr=0/ decimate=1/ interlaced=0/ bluray_compat=0/ constrained_intra=0/ bframes=14/ b_pyramid=2/ b_adapt=2/ b_bias=0/ direct=3/ weightb=1/ open_gop=0/ weightp=2/ keyint=240/ keyint_min=23/ scenecut=40/ intra_refresh=0/ rc_lookahead=60/ rc=crf/ mbtree=0/ crf=18.0/ qcomp=0.65/ qpmin=0/ qpmax=69/ qpstep=4/ vbv_maxrate=50000/ vbv_bufsize=62500/ crf_max=0.0/ nal_hrd=none/ filler=0/ ip_ratio=1.40/ pb_ratio=1.30/ aq=3: 0.80/ zones=118483,125315, q=32
Default: Yes
Forced: No

Audio # 1
ID: 2
Format: AC-3
Format/ Info: Audio Coding 3
Mode extension: CM (complete main)
Format settings, Endianness: Big
Codec ID: A_AC3
Duration: 1 h 27 min
Bit rate mode: Constant
Bit rate: 448 kb/ s
Channel (s): 6 channels
Channel positions: Front: LCR, Side: LR, LFE
Sampling rate: 48.0 kHz
Frame rate: 31.250 FPS (одна тисяча п'ятсот тридцять шість spf)
Compression mode: Lossy
Stream size: 279 MiB (18%)
Title: HiWayGrope
Language: Russian
Default: Yes
Forced: No

Audio # 2
ID: 3
Format: AC-3
Format/ Info: Audio Coding 3
Mode extension: CM (complete main)
Format settings, Endianness: Big
Codec ID: A_AC3
Duration: 1 h 27 min
Bit rate mode: Constant
Bit rate: 384 kb/ s
Channel (s): 6 channels
Channel positions: Front: LCR, Side: LR, LFE
Sampling rate: 48.0 kHz
Frame rate: 31.250 FPS (одна тисяча п'ятсот тридцять шість spf)
Compression mode: Lossy
Stream size: 239 MiB (16%)
Language: English
Default: No
Forced: No

Menu
00: 00: 00.000: en: 1
00: 04: 33.857: en: 2
00: 10: 34.634: en: 3
00: 15: 27.927: en: 4
00: 23: 21.066: en: 5
00: 28: 32.000: en: 6
00: 33: 02.145: en: 7
00: 39: 48.050: en: 8
00: 44: 44.930: en: 9
00: 49: 06.982: en: 10
00: 54: 47.155: en: 11
01: 00: 41.383: en: 12
01: 07: 31.709: en: 13
01: 11: 09.634: en: 14
01: 16: 22.404: en: 15
01: 21: 57.155: en: 16

Схожі торренти

Дата Назва Розмір Піри
2018-11-16 Алькатрас / Alcatraz (2018) WEBRip 720p | L2 2.05 GB (2198973272 Bytes) ⇧ 17 ⇩ 2
2018-11-16 Алькатрас / Alcatraz (2018) WEBRip | L2 1.32 GB (1418593460 Bytes) ⇧ 8 ⇩ 0
2018-11-17 Алькатрас / Alcatraz (2018) WEB-DLRip-AVC від New-Team | L2 | HiWay Grope 1.49 GB (1600735471 Bytes) ⇧ 562 ⇩ 15
2018-11-17 Алькатрас / Alcatraz (2018) WEB-DL 1080p від New-Team | L2 | HiWay Grope 3.30 GB (3543223217 Bytes) ⇧ 32 ⇩ 0