Ф.О.Т.О.Г.Р.А.Ф. (2018) WEBRip 720p

Завантажити торрент
Категорія Російські фільми
Розмір 232.90 MB (244213620 Bytes)
Додано 2018-11-17 15:00:06
Піри ⇧ 239 ⇩ 0
Останнє оновлення 2018-12-16 05:12:36

Інформація про фільм
Назва: Ф.О.Т.О.Г.Р.А.Ф.
Рік виходу: 2018
Жанр: бойовик , драма , фантастика , короткометражка
Режисер: Максим Фащенко
У ролях: Олександр Родін, Юрій херувимів

Про фільм:
Агент миротворчих сил на прізвисько Фотограф прибуває в Зону відчуження, щоб запобігти катастрофі глобального масштабу.


Країна: Росія
Тривалість: 00:36:03
Переклад: Оригінал

файл
Кодек: AVC
Якість: WebRip 720p
Відео: 1280х676, 774 kb/ s, 25.000 FPS
Звук: AAC, 2 channels, 126 kb/ s, 44.1 kHz

mediainfo General
Complete name:/ home/ roma/ Відео/ СТАЛКЕР фільм 'Ф.О.Т.О.Г.Р.А.Ф.' по грі 'STALKER'.mp4
Format: MPEG-4
Format profile: Base Media/ Version 2
Codec ID: mp42 (isom/ mp42)
File size: 233 MiB
Duration: 36 min 3 s
Overall bit rate mode: Variable
Overall bit rate: 903 kb/ s
Encoded date: UTC 2018-10-29 3:59:16
Tagged date: UTC 2018-10-29 3:59:16
gsst: 0
gstd: 2163426

Video
ID: 1
Format: AVC
Format/ Info: Advanced Video Codec
Format profile: Main@L3.1
Format settings: CABAC/ 3 Ref Frames
Format settings, CABAC: Yes
Format settings, ReFrames: 3 frames
Codec ID: avc1
Codec ID/ Info: Advanced Video Coding
Duration: 36 min 3 s
Bit rate: 774 kb/ s
Width 1 280 pixels
Height: 676 pixels
Display aspect ratio: 1.893
Frame rate mode: Constant
Frame rate: 25.000 FPS
Color space: YUV
Chroma subsampling: 4: 2: 0
Bit depth: 8 bits
Scan type: Progressive
Bits/ (Pixel * Frame): 0.036
Stream size: 200 MiB (86%)
Title: ISO Media file produced by Google Inc. Created on: 10/28/2018.
Encoded date: UTC 2018-10-29 3:59:16
Tagged date: UTC 2018-10-29 3:59:16
Color range: Limited
Color primaries: BT.709
Transfer characteristics: BT.709
Matrix coefficients: BT.709
Codec configuration box: avcC

Audio
ID: 2
Format: AAC LC
Format/ Info: Advanced Audio Codec Low Complexity
Codec ID: mp4a-40-2
Duration: 36 min 3 s
Bit rate mode: Variable
Bit rate: 126 kb/ s
Channel (s): 2 channels
Channel layout: LR
Sampling rate: 44.1 kHz Frame rate: 43.066 FPS (1024 SPF)
Compression mode: Lossy
Stream size: 32.4 MiB (14%)
Title: ISO Media file produced by Google Inc. Created on: 10/28/2018.
Language: English
Encoded date: UTC 2018-10-29 3:59:16
Tagged date: UTC 2018-10-29 3:59 : 16

Скріншоти



Схожі торренти

Дата Назва Розмір Піри
2018-11-17 Ф.О.Т.О.Г.Р.А.Ф. (2018) WEBRip 720p 232.90 MB (244213620 Bytes) ⇧ 239 ⇩ 0
2018-11-18 Ф.О.Т.О.Г.Р.А.Ф. (2018) WEBRip 1080p 355.17 MB (372421227 Bytes) ⇧ 171 ⇩ 0
2018-12-04 Ф.О.Т.О.Г.Р.А.Ф. (2018) WEBRip від ExKinoRay 319.14 MB (334643200 Bytes) ⇧ 82 ⇩ 1