Суперсімейка 2 / Incredibles 2 (2018) BDRip 1080p від селезень | Ліцензія

Завантажити торрент
Категорія Мультиплікація
Розмір 8.60 GB (9237521955 Bytes)
Додано 2018-12-01 18:00:11
Піри ⇧ 60 ⇩ 6
Останнє оновлення 2018-12-16 05:21:10

Інформація про фільм
Назва: Суперсімейка 2
Оригінальна назва: Incredibles 2
Рік виходу: 2018
Жанр: Мультфільм , фантастика , бойовик , комедія , пригоди , сімейний , повнометражний
Режисер: Бред Берд
У ролях: Крейг Т.Нельсон, Холлі Хантер, Сара Вауелл, Хак Мілнер, Кетрін Кінер, Ілай Фучіле, Боб Оденкірк, Семюел Л.Джексон, Майкл Берд, Софія Буш

После событий первой части суперсемейка пользуется повышенным вниманием со стороны журналистов. Про фільм: Після подій першої частини суперсімейка користується підвищеною увагою з боку журналістів. Несподівано виявилося, що чарівна Місіс Виняткова набагато краще виглядає на екрані телевізора, ніж її чоловік. Містеру виключно все частіше доводиться сидіти вдома і доглядати за дітьми, у кожного з яких є свої причини бути незадоволеним власними суперздатностями. Однак сімейним проблемам належить відступити на другий план, коли виявиться, що спокою Суперсімейки загрожує новий могутній ворог.

Країна: США
Студія: Pixar Animation Studios, Walt Disney Pictures
Тривалість: 1:57:50
Переклад: Дубльований | Ліцензія

Якість: BDRip 1080p
Відео: MPEG-4 AVC, 1920x804, 8300 Kbit/ s, 23.976 fps
звук:
Аудіо # 01: 48 kHz, AC3, 5.1, 640 Kbps | дубльований | RUS |
Аудіо # 02: 48 kHz, DTS, 5.1, 1510 Kbps | оригінал | ENG |
Субтитри: Російські (Forced, full, SDH), англійські

MI General
Unique ID: 146035769392471524661803884763526770402 (0x6DDD7753CD2D493482BDA4708610AEE2)
Complete name: D: Video111The.Incredibles.2.2018.Lic.BDRip.1080p.selezen.mkv
Format: Matroska
Format version: Version 4
File size: 8.60 GiB
Duration: 1 h 57 min
Overall bit rate: 10.5 Mb/ s
Movie name: The Incredibles 2 2018 from селезень
Encoded date: UTC 2018-12-01 11:49:06
Writing application: mkvmerge v28.2.0 ( 'The Awakening') 64-bit
Writing library: libebml v1.3.6 + libmatroska v1.4.9

Video
ID: 1
Format: AVC
Format/ Info: Advanced Video Codec
Format profile: High@L4.1
Format settings: CABAC/ 5 Ref Frames
Format settings, CABAC: Yes
Format settings, ReFrames: 5 frames
Codec ID: V_MPEG4/ ISO/ AVC
Duration: 1 h 57 min
Bit rate 8 300 kb/ s
Width: 1 920 pixels
Height: 804 pixels
Display aspect ratio: 2.40: 1
Frame rate mode: Constant
Frame rate: 23.976 (24000/1001) FPS
Color space: YUV
Chroma subsampling: 4: 2: 0
Bit depth: 8 bits
Scan type: Progressive
Bits/ (Pixel * Frame): 0.224
Stream size: 6.83 GiB (79%)
Title: selezen
Writing library: x264 core 148 r2705kMod 3f5ed56
Encoding settings: cabac=1/ ref=5/ deblock=1: -2: -2/ analyse=0x3: 0x133/ me=umh/ subme=10/ psy=1/ fade_compensate=0.00/ psy_rd=1.05: 0.07/ mixed_ref=1/ me_range=24/ chroma_me=1/ trellis=2/ 8x8dct=1/ cqm=0/ deadzone=21,11/ fast_pskip=0/ chroma_qp_offset=-3/ threads=12/ lookahead_threads=2/ sliced_threads=0/ nr=0/ decimate=0/ interlaced=0/ bluray_compat=0/ constrained_intra=0/ fgo=0/ bframes=8/ b_pyramid=2/ b_adapt=2/ b_bias=0/ direct=3/ weightb=1/ open_gop=0/ weightp=2/ keyint=240/ keyint_min=23/ scenecut=40/ intra_refresh=0/ rc_lookahead=50/ rc=2pass/ mbtree=0/ bitrate=8300/ ratetol=1.0/ qcomp=0.60/ qpmin=0/ qp max=51/ qpstep=4/ cplxblur=20.0/ qblur=0.5/ vbv_maxrate=50000/ vbv_bufsize=62500/ nal_hrd=none/ filler=0/ ip_ratio=1.40/ pb_ratio=1.30/ aq=3: 0.80
Language : English
Default: Yes
Forced: No

Audio # 1
ID: 2
Format: AC-3
Format/ Info : Audio Coding 3
Commercial name: Dolby Digital
Codec ID: A_AC3
Duration: 1 h 57 min
Bit rate mode: Constant
Bit rate: 640 kb/ s
Channel (s): 6 channels
Channel layout: LRC LFE Ls Rs
Sampling rate: 48.0 kHz
Frame rate: 31.250 FPS (1536 SPF)
Bit depth: 16 bits
Compression mode: Lossy
Stream size: 539 MiB (6%)
Title: Dub [License]
Language: Russian
Service kind: Complete Main
Default: Yes
Forced: Yes

Audio # 2
ID: 3
Format: DTS
Format/ Info: Digital Theater Systems
Codec ID: A_DTS
Duration: 1 h 57 min
Bit rate mode: Constant
Bit rate: 1 509 kb/ s
Channel (s): 6 channels
Channel layout: CLR Ls Rs LFE
Sampling rate: 48.0 kHz
Frame rate: 93.750 FPS (512 SPF )
Bit depth: 24 bits
Compression mode: Lossy
Stream size: 1.24 GiB (14%)
Title: Original
Language: English
Default : No
Forced: No

Text # 1
ID: 4
Format: UTF8
Codec ID: S_TEXT/ UTF8
Codec ID/ Info: UTF-8 Plain Text
Duration: 1 h 7 min
Bit rate: 0 b/ s
Count of elements: 3
Stream size: 203 Bytes ( 0%)
Title: Forced
Language: Russian
Default: Yes
Forced: Yes

Text # 2
ID: 5 Format: UTF8
Codec ID: S_TEXT/ UTF8
Codec ID/ Info: UTF8 Plain Text
Duration: 1 h 55 min
Bit rate: 118 b/ s
Count of elements: 1760
Stream size: 101 KiB (0%)
Title: Full
Language: Russian
Default: No
Forced: No

Text # 3
ID: 6
Format: UTF8
Codec ID: S_TEXT/ UTF8
Codec ID/ Info: UTF8 Plain Text
Duration: 1 h 54 min
Bit rate: 130 b/ s
Count of elements: 2304
Stream size: 110 KiB (0%)
Title: SDH
Language: Russian
Default : No
Forced: No

Text # 4
ID: 7
Format: UTF8
Codec ID: S_TEXT/ UTF8
Codec ID/ Info: UTF-8 Plain Text
Duration: 1 h 54 min
Bit rate: 81 b/ s
Count of elements: 2326
Stream size: 68.8 KiB ( 0%)
Title: SDH
Language: English
Default: No
Forced: No

Text # 5
ID: 8 Format: UTF8
Codec ID: S_TEXT/ UTF8
Codec ID/ Info: UTF8 Plain Text
Duration: 1 h 54 min
Bit rate: 124 b/ s
Count of elements: 2325
Stream size: 105 KiB (0%)
Title: SDH Colored
Language: English
Default: No
Forced: No

Menu
00: 00: 00.000:: 00: 00: 00.000
00: 03: 22.327:: 00: 03: 22.327
00: 08: 53.616:: 00: 08: 53.616
00: 09: 36.784:: 00: 09: 36.784
00: 13: 38.276:: 00: 13: 38.276
00: 15: 44.735:: 00: 15: 44.735
00: 21: 19.737:: 00: 21: 19.737
00: 23: 28.282:: 00: 23: 28.282
00: 27: 08.794:: 00: 27: 08.794
00: 28: 59.571:: 00: 28: 59.571
00:35: 10.900:: 00: 35: 10.900
00: 39: 07.845:: 00: 39: 07.845
00: 42: 43.894:: 00: 42: 43.894
00: 43: 42.411: : 00: 43: 42.411
00: 47: 35.352:: 00: 47: 35.352
00: 48: 53.889:: 00: 48: 53.889
00: 54: 15.585:: 00 : 54: 15.585
00: 56: 16.039:: 00: 56: 16.039
01: 00: 58.696:: 01: 00: 58.696
01: 02: 01.884:: 01: 02 : 01.884
01: 06: 55.511:: 01: 06: 55.511
01: 09: 18.237:: 01: 09: 18.237
01: 11: 28.200:: 01: 11: 28.200
01: 12: 37.686:: 01: 12: 37.686
01: 14: 39.266:: 01: 14: 39.266
01: 18: 00.968:: 01: 18: 00.968
01: 20: 32.536:: 01: 20: 32.536
01: 25: 01.930:: 01: 25: 01.930
01: 27: 59.440:: 01: 27: 59.440
01: 31: 53.925:: 0 1: 31: 53.925
01: 33: 26.434:: 01: 33: 26.434
01: 36: 25.237:: 01: 36: 25.237
01: 37: 45.192:: 01: 37: 45.192
01: 43: 56.897:: 01: 43: 56.897
01: 45: 35.912:: 01: 45: 35.912
01: 47: 30.902:: 01: 47: 30.902

Реліз від:

Схожі торренти

Дата Назва Розмір Піри
2018-12-01 Суперсімейка 2 / Incredibles 2 (2018) BDRip-AVC від HELLYWOOD | Ліцензія 2.91 GB (3127911554 Bytes) ⇧ 18 ⇩ 1
2018-12-01 Суперсімейка 2 / Incredibles 2 (2018) BDRip 720p від HELLYWOOD | Ліцензія 4.69 GB (5031719118 Bytes) ⇧ 16 ⇩ 0
2018-12-01 Суперсімейка 2 / Incredibles 2 (2018) BDRip від MegaPeer | Ліцензія 2.18 GB (2344597777 Bytes) ⇧ 105 ⇩ 7
2018-12-01 Суперсімейка 2 / Incredibles 2 (2018) BDRip від MegaPeer | Ліцензія 1.46 GB (1567942656 Bytes) ⇧ 475 ⇩ 30
2018-12-01 Суперсімейка 2 / Incredibles 2 (2018) HDRip від MegaPeer | Ліцензія 747.34 MB (783647338 Bytes) ⇧ 13 ⇩ 3